<?xml version="1.0" standalone="no"?>
<!DOCTYPE svg PUBLIC "-//W3C//DTD SVG 1.1//EN" "http://www.w3.org/Graphics/SVG/1.1/DTD/svg11.dtd" >
<svg>
<metadata>
Created by FontForge 20120731 at Sun May 10 23:13:32 2020
 By www
Copr. Luc as  de Groot 1994
</metadata>
<defs>
<font id="TheSansBlack-Plain" horiz-adv-x="564" >
  <font-face 
    font-family="The Sans Black-"
    font-weight="500"
    font-stretch="normal"
    units-per-em="1000"
    panose-1="0 0 0 0 0 0 0 0 0 0"
    ascent="800"
    descent="-200"
    x-height="497"
    cap-height="675"
    bbox="-68 -469 1756.26 1185"
    underline-thickness="20"
    underline-position="-140"
    unicode-range="U+0020-FB02"
  />
<missing-glyph horiz-adv-x="500" 
 />
    <glyph glyph-name=".notdef" horiz-adv-x="500" 
 />
    <glyph glyph-name=".null" horiz-adv-x="0" 
 />
    <glyph glyph-name="nonmarkingreturn" horiz-adv-x="333" 
 />
    <glyph glyph-name="space" unicode=" " horiz-adv-x="218" 
 />
    <glyph glyph-name="exclam" unicode="!" horiz-adv-x="309" 
d="M261 730l-25 -514h-160l-28 514h213zM153 186q44 0 74 -29t30 -71t-30 -71t-74 -29t-74 29t-30 71t30 71t74 29z" />
    <glyph glyph-name="quotedbl" unicode="&#x22;" horiz-adv-x="461" 
d="M209 763l-20 -290h-137l-20 290h177zM429 763l-20 -290h-137l-20 290h177z" />
    <glyph glyph-name="numbersign" unicode="#" horiz-adv-x="713" 
d="M660 155h-120l-16 -155h-160l16 155h-88l-16 -155h-159l16 155h-110v136h124l11 98h-105v136h119l15 150h159l-15 -150h88l15 150h160l-15 -150h111v-136h-125l-11 -98h106v-136zM394 291l11 98h-88l-11 -98h88z" />
    <glyph glyph-name="dollar" unicode="$" horiz-adv-x="500" 
d="M467 196q0 -69 -44 -123.5t-118 -76.5v-110h-127v100q-49 2 -116 11l12 161q60 -19 122 -19q77 0 77 41q0 18 -18 30.5t-45 20t-58.5 22t-58.5 33t-45 55t-18 87.5q0 68 41.5 120t110.5 71v93h127v-83q52 -2 98 -12l-13 -152q-56 16 -108 16q-65 0 -65 -37
q0 -17 25.5 -30t61.5 -25.5t72 -31.5t61.5 -60.5t25.5 -100.5z" />
    <glyph glyph-name="percent" unicode="%" horiz-adv-x="835" 
d="M382 532q0 -85 -53.5 -137.5t-129.5 -52.5q-81 0 -126.5 48t-45.5 130q0 84 52.5 135t127.5 51q78 0 126.5 -43.5t48.5 -130.5zM235 525q0 34 -7 46t-22 12q-31 0 -31 -59t29 -59q13 0 22 15t9 45zM733 610l-499 -641l-132 96l499 641zM810 159q0 -85 -53.5 -137.5
t-129.5 -52.5q-81 0 -126.5 48t-45.5 130q0 84 52.5 135t127.5 51q78 0 126.5 -43.5t48.5 -130.5zM663 152q0 34 -7 46t-22 12q-31 0 -31 -59t29 -59q13 0 22 15t9 45z" />
    <glyph glyph-name="ampersand" unicode="&#x26;" horiz-adv-x="800" 
d="M777 109l-121 -138q-86 59 -130 91q-113 -76 -252 -76q-122 0 -180.5 59t-58.5 145q0 107 108 194q-73 90 -73 172q0 79 61 133t168 54q98 0 151.5 -44.5t53.5 -121.5q0 -99 -112 -189q57 -47 125 -96v-1q48 83 48 183h180q0 -158 -88 -282q77 -54 120 -83zM324 567
q0 17 -9.5 28t-26.5 11q-16 0 -27 -11.5t-11 -28.5q0 -36 33 -75q41 39 41 76zM389 163q-67 50 -136 111q-28 -31 -28 -63q0 -27 20.5 -48t56.5 -21q45 0 87 21z" />
    <glyph glyph-name="quotesingle" unicode="'" horiz-adv-x="241" 
d="M209 763l-20 -290h-137l-20 290h177z" />
    <glyph glyph-name="parenleft" unicode="(" horiz-adv-x="310" 
d="M334 -193h-176q-132 216 -132 479q0 261 133 480h171q-124 -211 -124 -476q0 -267 128 -483z" />
    <glyph glyph-name="parenright" unicode=")" horiz-adv-x="310" 
d="M283 290q0 -266 -134 -483h-172q126 214 126 479q0 266 -126 480h176q130 -219 130 -476z" />
    <glyph glyph-name="asterisk" unicode="*" horiz-adv-x="400" 
d="M380 526l-63 -108l-77 71l23 -103h-126l23 103l-78 -70l-62 107l100 32l-100 32l63 108l77 -71l-23 103h125l-22 -103l77 71l63 -108l-100 -32z" />
    <glyph glyph-name="plus" unicode="+" horiz-adv-x="570" 
d="M550 182h-178v-182h-174v182h-178v152h178v180h174v-180h178v-152z" />
    <glyph glyph-name="comma" unicode="," horiz-adv-x="300" 
d="M103 -200l-73 65q55 59 63 95.5t-25 72.5q-19 21 -22.5 50t6.5 55t36 44t62 18q63 0 94 -59q38 -74 -8 -176q-39 -87 -133 -165z" />
    <glyph glyph-name="hyphen" unicode="-" horiz-adv-x="340" 
d="M300 186h-260v145h260v-145z" />
    <glyph glyph-name="period" unicode="." horiz-adv-x="300" 
d="M150 205q45 0 77.5 -32.5t32.5 -77.5t-32.5 -77.5t-77.5 -32.5t-77.5 32.5t-32.5 77.5t32.5 77.5t77.5 32.5z" />
    <glyph glyph-name="slash" unicode="/" horiz-adv-x="433" 
d="M440 675l-257 -675h-184l258 675h183z" />
    <glyph glyph-name="zero" unicode="0" horiz-adv-x="601" 
d="M573 259q0 -126 -81.5 -199.5t-200.5 -73.5q-54 0 -99 12.5t-83 41.5t-59.5 81.5t-21.5 126.5q0 127 82 202.5t196 75.5q62 0 110.5 -17t77.5 -43.5t47.5 -63t25 -71t6.5 -72.5zM392 260q0 52 -23 81t-67 29q-39 0 -66 -29t-27 -83q0 -112 93 -112q39 0 64.5 29.5
t25.5 84.5z" />
    <glyph glyph-name="one" unicode="1" horiz-adv-x="348" 
d="M300 0h-186v341l-86 -35l-27 149l161 59h138v-514z" />
    <glyph glyph-name="two" unicode="2" horiz-adv-x="480" 
d="M448 0h-416v149l51 35q89 62 118 89.5t29 52.5q0 42 -60 42q-57 0 -109 -33l-25 153q85 36 180 36q105 0 161.5 -43t56.5 -119q0 -110 -124 -188l-27 -17v-2q63 5 165 5v-160z" />
    <glyph glyph-name="three" unicode="3" horiz-adv-x="454" 
d="M430 57q0 -99 -79 -167t-219 -68q-57 0 -112 15l15 156q48 -16 97 -16q47 0 73.5 17t26.5 49q0 79 -179 55v146q170 -1 170 74q0 23 -18.5 36.5t-54.5 13.5q-54 0 -105 -27l-17 149q73 30 162 30q108 0 166.5 -46.5t58.5 -119.5q0 -47 -25.5 -85.5t-68.5 -60.5v-1
q53 -14 81 -55t28 -95z" />
    <glyph glyph-name="four" unicode="4" horiz-adv-x="569" 
d="M554 0h-85v-171h-179v171h-244l-29 147l225 371h227v-355h85v-163zM294 163v180h-1l-102 -181q22 1 103 1z" />
    <glyph glyph-name="five" unicode="5" horiz-adv-x="458" 
d="M431 79q0 -113 -90 -185t-227 -72q-48 0 -90 8l16 160q38 -7 81 -7q57 0 86.5 20t29.5 53q0 67 -127 67q-36 0 -66 -5v396h368v-179l-197 2v-69q99 0 157.5 -50.5t58.5 -138.5z" />
    <glyph glyph-name="six" unicode="6" horiz-adv-x="580" 
d="M557 234q0 -109 -77 -178.5t-198 -69.5q-114 0 -182.5 73.5t-68.5 215.5q0 192 103.5 307.5t283.5 115.5q31 0 73 -2v-162q-47 7 -82 7q-129 0 -174 -96q-3 -7 -8 -22l1 -1q42 29 117 29q98 0 155 -58.5t57 -158.5zM365 218q0 77 -65 77q-31 0 -49 -19.5t-18 -49.5
q0 -38 17 -60t47 -22q34 0 51 20t17 54z" />
    <glyph glyph-name="seven" unicode="7" horiz-adv-x="458" 
d="M441 361q-104 -257 -152 -532h-202q53 280 147 509q-138 -3 -217 -3v179h424v-153z" />
    <glyph glyph-name="eight" unicode="8" horiz-adv-x="565" 
d="M540 200q0 -101 -76.5 -157.5t-194.5 -56.5q-112 0 -178 51.5t-66 140.5q0 95 100 165l-1 1q-93 56 -93 158q0 94 71.5 150t182.5 56q112 0 178 -48t66 -131q0 -51 -24.5 -88.5t-71.5 -71.5q107 -65 107 -169zM341 513q0 19 -15.5 32t-44.5 13q-28 0 -43.5 -13.5
t-15.5 -35.5q0 -19 16.5 -34.5t50.5 -34.5l1 -1q51 39 51 74zM347 193q0 43 -76 77h-1q-53 -35 -53 -73q0 -26 18 -41.5t47 -15.5q30 0 47.5 15t17.5 38z" />
    <glyph glyph-name="nine" unicode="9" horiz-adv-x="580" 
d="M549 228q0 -88 -22 -160t-68 -128t-124 -87t-182 -31q-39 0 -74 8v164q32 -13 79 -13q140 0 172 85q1 3 4 11t4 11l-1 1q-42 -33 -112 -33q-92 0 -147 58.5t-55 153.5q0 111 75 182.5t192 71.5q119 0 189 -73.5t70 -220.5zM344 295q0 30 -16 49.5t-47 19.5t-49.5 -20.5
t-18.5 -51.5q0 -77 66 -77q32 0 48.5 22t16.5 58z" />
    <glyph glyph-name="colon" unicode=":" horiz-adv-x="300" 
d="M150 474q45 0 77.5 -32.5t32.5 -77.5t-32.5 -77.5t-77.5 -32.5t-77.5 32.5t-32.5 77.5t32.5 77.5t77.5 32.5zM150 205q45 0 77.5 -32.5t32.5 -77.5t-32.5 -77.5t-77.5 -32.5t-77.5 32.5t-32.5 77.5t32.5 77.5t77.5 32.5z" />
    <glyph glyph-name="semicolon" unicode=";" horiz-adv-x="300" 
d="M260 364q0 -45 -32.5 -77.5t-77.5 -32.5t-77.5 32.5t-32.5 77.5t32.5 77.5t77.5 32.5t77.5 -32.5t32.5 -77.5zM150 200q63 0 94 -59q38 -74 -8 -176q-39 -87 -133 -165l-73 65q55 59 63 95.5t-25 72.5q-19 21 -22.5 50t6.5 55t36 44t62 18z" />
    <glyph glyph-name="less" unicode="&#x3c;" horiz-adv-x="510" 
d="M31 249l321 310l121 -121l-207 -188l208 -189l-120 -123z" />
    <glyph glyph-name="equal" unicode="=" horiz-adv-x="550" 
d="M500 289h-450v145h450v-145zM500 69h-450v145h450v-145z" />
    <glyph glyph-name="greater" unicode="&#x3e;" horiz-adv-x="510" 
d="M479 249l-321 -310l-121 121l207 188l-208 189l120 123z" />
    <glyph glyph-name="question" unicode="?" horiz-adv-x="444" 
d="M416 510q0 -40 -14 -72.5t-33.5 -52t-41.5 -40t-39 -36t-24.5 -40.5t2.5 -53h-178q-24 61 -7 106.5t47 69t59.5 50t29.5 49.5q0 79 -189 79l22 165q97 -2 170 -21.5t114.5 -52t61.5 -70.5t20 -81zM284 86q0 -42 -30 -71t-74 -29t-74 29t-30 71t30 71t74 29t74 -29t30 -71
z" />
    <glyph glyph-name="at" unicode="@" horiz-adv-x="779" 
d="M753 414q0 -124 -65 -189t-174 -65q-41 0 -65.5 17.5t-27.5 49.5h-4q-44 -67 -117 -67q-44 0 -70.5 34t-26.5 102q0 102 55.5 165t167.5 63q65 0 113 -23l-28 -153q-7 -38 -3 -52.5t22 -14.5q72 0 72 124q0 68 -44 110t-140 42q-105 0 -175.5 -69t-70.5 -181
q0 -97 51.5 -145t170.5 -48q92 0 172 29v-128q-31 -15 -87.5 -24t-105.5 -9q-176 0 -265.5 82t-89.5 228q0 176 116 286.5t293 110.5q148 0 237 -78t89 -197zM406 419q-9 4 -21 4q-25 0 -43 -34t-18 -71q0 -40 15 -40q16 0 33.5 28t28.5 86z" />
    <glyph glyph-name="A" unicode="A" horiz-adv-x="641" 
d="M653 0h-203l-35 110h-208l-34 -110h-184l220 675h213zM368 256l-27 85q-25 82 -31 117h-2q-7 -47 -33 -128l-23 -74h116z" />
    <glyph glyph-name="B" unicode="B" horiz-adv-x="594" 
d="M567 216q0 -96 -73.5 -157t-212.5 -61q-11 0 -89 1t-144 1v674q102 6 269 6q113 0 176.5 -44t63.5 -130q0 -45 -24 -83t-63 -58v-3q43 -15 70 -56t27 -90zM359 477q0 53 -72 53q-21 0 -53 -2v-114q11 -1 40 -1q85 0 85 64zM366 214q0 28 -21 45t-63 17q-37 0 -48 -1v-123
q24 -2 48 -2q38 0 61 16.5t23 47.5z" />
    <glyph glyph-name="C" unicode="C" horiz-adv-x="541" 
d="M506 14q-72 -23 -159 -23q-76 0 -134.5 20.5t-93 52t-56 75.5t-29 85t-7.5 86q0 171 92 270.5t256 99.5q68 0 130 -16l-21 -168q-53 15 -109 15q-67 0 -105 -44.5t-38 -125.5q0 -180 150 -180q58 0 102 19z" />
    <glyph glyph-name="D" unicode="D" horiz-adv-x="651" 
d="M626 354q0 -171 -98.5 -265t-265.5 -94q-112 0 -214 6v672q106 6 243 6q335 0 335 -325zM425 339q0 90 -29 136.5t-115 46.5q-33 0 -47 -2v-361q12 -3 43 -3q66 0 107 46.5t41 136.5z" />
    <glyph glyph-name="E" unicode="E" horiz-adv-x="480" 
d="M443 0h-395v675h395v-158h-209v-95h198v-152h-198v-109h209v-161z" />
    <glyph glyph-name="F" unicode="F" horiz-adv-x="460" 
d="M433 515h-199v-109h188v-153h-188v-253h-186v675h385v-160z" />
    <glyph glyph-name="G" unicode="G" horiz-adv-x="664" 
d="M622 656l-28 -171q-86 33 -179 33q-90 0 -138.5 -51t-48.5 -135q0 -82 41 -128t124 -46q21 0 38 5v205h186v-333q-105 -47 -243 -47q-168 0 -258 88.5t-90 242.5q0 166 107.5 266.5t290.5 100.5q101 0 198 -30z" />
    <glyph glyph-name="H" unicode="H" horiz-adv-x="670" 
d="M622 0h-186v266h-202v-266h-186v675h186v-246h202v246h186v-675z" />
    <glyph glyph-name="I" unicode="I" horiz-adv-x="282" 
d="M234 0h-186v675h186v-675z" />
    <glyph glyph-name="J" unicode="J" horiz-adv-x="343" 
d="M297 207q0 -43 -10 -80t-31.5 -69t-62.5 -50.5t-98 -18.5q-53 0 -95 8v156q24 -8 51 -8q60 0 60 66v464h186v-468z" />
    <glyph glyph-name="K" unicode="K" horiz-adv-x="615" 
d="M616 0h-239l-143 308v-308h-186v675h186v-289l146 289h225l-193 -325z" />
    <glyph glyph-name="L" unicode="L" horiz-adv-x="432" 
d="M420 0h-372v675h186v-509h186v-166z" />
    <glyph glyph-name="M" unicode="M" horiz-adv-x="870" 
d="M864 0h-195l-37 225q-12 80 -20 153h-2q-16 -86 -41 -177l-54 -201h-174l-53 179q-32 112 -44 199h-2q-6 -67 -20 -169l-28 -209h-187l112 675h210l71 -234q20 -67 36 -153h2q13 76 39 156l72 231h204z" />
    <glyph glyph-name="N" unicode="N" horiz-adv-x="686" 
d="M638 0h-236l-113 231q-42 85 -67 152q5 -50 5 -107v-276h-179v675h238l98 -201q63 -130 82 -175q-7 64 -7 140v236h179v-675z" />
    <glyph glyph-name="O" unicode="O" horiz-adv-x="701" 
d="M680 349q0 -162 -98 -262.5t-245 -100.5q-156 0 -236 89.5t-80 252.5q0 160 99 260.5t244 100.5q142 0 229 -83t87 -257zM482 340q0 179 -132 179q-54 0 -92.5 -44t-38.5 -133q0 -185 127 -185q53 0 94.5 43t41.5 140z" />
    <glyph glyph-name="P" unicode="P" horiz-adv-x="542" 
d="M531 454q0 -105 -70 -176t-199 -71q-15 0 -28 1v-208h-186v675q103 5 204 5q136 0 207.5 -57.5t71.5 -168.5zM339 448q0 36 -21 58.5t-66 22.5q-10 0 -18 -1v-165q7 -1 14 -1q38 0 64.5 23t26.5 63z" />
    <glyph glyph-name="Q" unicode="Q" horiz-adv-x="701" 
d="M680 349q0 -162 -98 -262.5t-245 -100.5q-156 0 -236 89.5t-80 252.5q0 160 99 260.5t244 100.5q142 0 229 -83t87 -257zM698 -229q-67 -11 -126.5 -8.5t-96.5 12.5t-90.5 15.5t-108.5 -0.5v162q96 11 212.5 -11.5t209.5 -7.5v-162zM482 340q0 179 -132 179
q-54 0 -92.5 -44t-38.5 -133q0 -185 127 -185q53 0 94.5 43t41.5 140z" />
    <glyph glyph-name="R" unicode="R" horiz-adv-x="586" 
d="M594 0h-226l-127 246h-7v-246h-186v675q79 5 231 5q133 0 200.5 -50.5t67.5 -160.5q0 -62 -33 -113.5t-90 -71.5q30 -45 49 -78zM351 455q0 72 -82 72q-23 0 -35 -2v-145q14 -2 31 -2q39 0 62.5 20t23.5 57z" />
    <glyph glyph-name="S" unicode="S" horiz-adv-x="502" 
d="M477 224q0 -104 -78.5 -170.5t-210.5 -66.5q-76 0 -139 14l10 170q68 -24 144 -24q34 0 54 13.5t20 36.5q0 22 -18.5 38t-46.5 24.5t-61 23.5t-61 34t-46.5 58t-18.5 93q0 101 74.5 160.5t206.5 59.5q57 0 123 -11l-10 -161q-64 18 -120 18q-37 0 -55.5 -13t-18.5 -34
q0 -23 26 -39t63 -30t74 -34t63 -60.5t26 -99.5z" />
    <glyph glyph-name="T" unicode="T" horiz-adv-x="502" 
d="M490 515h-146v-515h-186v515h-146v160h478v-160z" />
    <glyph glyph-name="U" unicode="U" horiz-adv-x="664" 
d="M616 268q0 -143 -77 -212.5t-217 -69.5q-151 0 -212.5 69t-61.5 189v431h186v-422q0 -57 22 -84t77 -27q56 0 77.5 26t21.5 90v417h184v-407z" />
    <glyph glyph-name="V" unicode="V" horiz-adv-x="644" 
d="M652 675l-219 -675h-219l-222 675h200l103 -338q24 -78 33 -120h2q13 68 32 130l100 328h190z" />
    <glyph glyph-name="W" unicode="W" horiz-adv-x="950" 
d="M940 675l-164 -675h-226l-56 253q-14 62 -26 172h-1q-5 -78 -25 -165l-59 -260h-211l-162 675h197l62 -276q14 -61 21 -147h1q11 86 25 144l71 279h187l68 -269q19 -75 27 -148h1q12 86 27 157l56 260h187z" />
    <glyph glyph-name="X" unicode="X" horiz-adv-x="671" 
d="M671 0h-235l-107 204l-107 -204h-222l206 342l-194 333h215l106 -200l103 200h212l-191 -336z" />
    <glyph glyph-name="Y" unicode="Y" horiz-adv-x="597" 
d="M604 675l-214 -442v-233h-186v232l-211 443h202l63 -146q24 -55 40 -103h2q12 37 49 118l58 131h197z" />
    <glyph glyph-name="Z" unicode="Z" horiz-adv-x="534" 
d="M491 0h-448v147l186 324q16 26 26 38q-11 -1 -85 -1h-121v167h437v-154l-196 -322q-17 -25 -19 -28q10 1 113 1h107v-172z" />
    <glyph glyph-name="bracketleft" unicode="[" horiz-adv-x="336" 
d="M303 -213h-253v998h253v-147h-81v-703h81v-148z" />
    <glyph glyph-name="backslash" unicode="\" horiz-adv-x="420" 
d="M434 0h-177l-266 675h175z" />
    <glyph glyph-name="bracketright" unicode="]" horiz-adv-x="336" 
d="M286 -213h-253v148h81v703h-81v147h253v-998z" />
    <glyph glyph-name="asciicircum" unicode="^" horiz-adv-x="535" 
d="M499 392l-128 -64l-112 221l-107 -221l-119 62l161 285h136z" />
    <glyph glyph-name="underscore" unicode="_" horiz-adv-x="500" 
d="M500 -252h-500v148h500v-148z" />
    <glyph glyph-name="grave" unicode="`" horiz-adv-x="380" 
d="M354 652l-57 -107l-231 89l67 127z" />
    <glyph glyph-name="a" unicode="a" horiz-adv-x="529" 
d="M484 0h-170q0 40 4 63h-1q-18 -35 -57 -55t-87 -20q-72 0 -110 39t-38 103q0 95 77 142.5t194 47.5v11q0 21 -18 30t-61 9q-73 0 -142 -33l-15 148q92 26 183 26q134 0 185.5 -44t51.5 -140v-221q0 -69 4 -106zM296 190v17q-57 0 -78.5 -12.5t-21.5 -37.5q0 -14 10 -23
t27 -9q27 0 45 19.5t18 45.5z" />
    <glyph glyph-name="b" unicode="b" horiz-adv-x="559" 
d="M534 277q0 -125 -73.5 -207.5t-208.5 -82.5q-109 0 -205 28v715h182v-174q0 -56 -7 -103h1q37 56 129 56q89 0 135.5 -62t46.5 -170zM342 258q0 53 -12 76t-37 23q-27 0 -45.5 -30t-18.5 -85v-105q16 -4 35 -4q78 0 78 125z" />
    <glyph glyph-name="c" unicode="c" horiz-adv-x="409" 
d="M381 7q-51 -19 -123 -19q-234 0 -234 245q0 119 68 197.5t202 78.5q41 0 87 -11l-18 -158q-38 12 -65 12q-83 0 -83 -107q0 -48 22.5 -73t60.5 -25q40 0 69 14z" />
    <glyph glyph-name="d" unicode="d" horiz-adv-x="559" 
d="M512 0h-165q0 34 3 56h-2q-46 -69 -143 -69q-87 0 -133.5 62.5t-46.5 169.5q0 124 72.5 207t199.5 83q15 0 33 -2v223h182v-730zM330 258v102q-15 4 -35 4q-78 0 -78 -125q0 -100 49 -100q27 0 45.5 31t18.5 88z" />
    <glyph glyph-name="e" unicode="e" horiz-adv-x="524" 
d="M496 269q0 -37 -6 -78h-282q2 -28 29 -45.5t78 -17.5q77 0 147 31l16 -136q-88 -35 -192 -35q-262 0 -262 254q0 119 65 193.5t183 74.5q111 0 167.5 -66t56.5 -175zM319 309q3 69 -51 69q-26 0 -42.5 -19t-18.5 -50h112z" />
    <glyph glyph-name="f" unicode="f" horiz-adv-x="361" 
d="M363 733l-11 -148q-20 8 -46 8q-27 0 -39 -11t-12 -38v-47h85v-140h-85v-357h-182v357h-63v140h63v46q0 101 48.5 149.5t161.5 48.5q45 0 80 -8z" />
    <glyph glyph-name="g" unicode="g" horiz-adv-x="555" 
d="M531 -33q0 -87 -78 -149.5t-207 -62.5q-219 0 -219 148q0 31 19.5 63t45.5 45q-47 24 -47 79q0 32 17.5 58.5t44.5 36.5q-74 38 -74 130q0 84 61 139.5t174 55.5q50 0 99 -13h167v-143h-44q2 -6 2 -21q0 -84 -56.5 -130.5t-164.5 -46.5h-21q-12 -6 -12 -17
q0 -13 12 -16.5t53 -3.5h56q172 0 172 -152zM322 327q0 24 -15.5 38.5t-44.5 14.5q-26 0 -41.5 -14t-15.5 -37q0 -24 15.5 -38.5t44.5 -14.5q26 0 41.5 14t15.5 37zM353 -57q0 38 -45 38h-70h-15q-18 -15 -18 -42q0 -21 17 -34t50 -13q40 0 60.5 14.5t20.5 36.5z" />
    <glyph glyph-name="h" unicode="h" 
d="M517 0h-182v314q0 41 -28 41q-30 0 -54 -36t-24 -78v-241h-182v730h182v-182q0 -61 -9 -103h1q50 64 149 64q77 0 112 -43.5t35 -113.5v-352z" />
    <glyph glyph-name="i" unicode="i" horiz-adv-x="276" 
d="M247 640q0 -43 -32 -74t-77 -31t-77 31t-32 74t32 74t77 31t77 -31t32 -74zM229 0h-182v497h182v-497z" />
    <glyph glyph-name="j" unicode="j" horiz-adv-x="276" 
d="M247 640q0 -43 -32 -74t-77 -31t-77 31t-32 74t32 74t77 31t77 -31t32 -74zM230 -11q0 -228 -224 -228q-37 0 -74 10l9 153q28 -11 55 -11q52 0 52 55v529h182v-508z" />
    <glyph glyph-name="k" unicode="k" horiz-adv-x="565" 
d="M565 0h-225l-111 230v-230h-182v730h182v-424l102 191h224l-151 -228z" />
    <glyph glyph-name="l" unicode="l" horiz-adv-x="276" 
d="M229 0h-182v730h182v-730z" />
    <glyph glyph-name="m" unicode="m" horiz-adv-x="848" 
d="M801 0h-182v308q0 47 -28 47q-27 0 -52 -34.5t-25 -80.5v-240h-180v308q0 47 -28 47q-27 0 -52 -34.5t-25 -80.5v-240h-182v497h169q0 -35 -5 -67h1q50 79 153 79q105 0 135 -79q21 37 61 58t89 21q151 0 151 -170v-339z" />
    <glyph glyph-name="n" unicode="n" 
d="M517 0h-182v314q0 41 -28 41q-30 0 -54 -35.5t-24 -77.5v-242h-182v497h168q0 -39 -5 -66h1q55 78 159 78q77 0 112 -43.5t35 -113.5v-352z" />
    <glyph glyph-name="o" unicode="o" 
d="M541 260q0 -122 -78 -197t-193 -75q-247 0 -247 246q0 124 77.5 199.5t194.5 75.5q121 0 183.5 -64.5t62.5 -184.5zM352 249q0 54 -15.5 79t-52.5 25q-30 0 -51 -25t-21 -74q0 -58 15.5 -83t52.5 -25q35 0 53.5 28t18.5 75z" />
    <glyph glyph-name="p" unicode="p" horiz-adv-x="559" 
d="M534 278q0 -132 -67 -209.5t-203 -77.5q-22 0 -35 3v-227h-182v730h165q0 -34 -2 -56h2q43 68 142 68q87 0 133.5 -62t46.5 -169zM342 258q0 100 -49 100q-27 0 -45.5 -31t-18.5 -88v-102q20 -4 35 -4q78 0 78 125z" />
    <glyph glyph-name="q" unicode="q" horiz-adv-x="559" 
d="M512 -233h-182v177q0 59 7 108h-2q-38 -65 -125 -65q-91 0 -138 59t-47 172q0 126 73.5 208.5t210.5 82.5q104 0 203 -17v-725zM330 262v99q-24 3 -35 3q-78 0 -78 -125q0 -100 48 -100q27 0 46 31.5t19 91.5z" />
    <glyph glyph-name="r" unicode="r" horiz-adv-x="356" 
d="M351 510l-9 -180q-56 15 -84.5 -14t-28.5 -108v-208h-182v497h168q0 -29 -5 -74h1q48 90 140 87z" />
    <glyph glyph-name="s" unicode="s" horiz-adv-x="405" 
d="M381 160q0 -80 -64.5 -126t-172.5 -46q-15 0 -103 8l4 144q54 -15 102 -15q40 0 40 22q0 14 -16.5 24.5t-40 20t-47 24t-40 45.5t-16.5 76q0 74 59.5 123.5t170.5 49.5q29 0 83 -6l-4 -140q-40 10 -82 10q-37 0 -37 -23q0 -10 17 -20t41 -21.5t48 -28t41 -48t17 -73.5z
" />
    <glyph glyph-name="t" unicode="t" horiz-adv-x="380" 
d="M348 3q-60 -15 -115 -15q-92 0 -126 34.5t-34 130.5v204h-63v140h62v140l182 49v-189h94v-140h-93v-167q0 -28 9.5 -39.5t32.5 -11.5q25 0 51 7v-143z" />
    <glyph glyph-name="u" unicode="u" horiz-adv-x="562" 
d="M516 0h-168q0 38 5 66h-1q-55 -78 -159 -78q-77 0 -112 43.5t-35 113.5v352h182v-314q0 -41 28 -41q30 0 54 35.5t24 77.5v242h182v-497z" />
    <glyph glyph-name="v" unicode="v" horiz-adv-x="535" 
d="M540 497l-180 -497h-184l-181 497h198l40 -119q26 -81 39 -133h2q16 72 34 128l39 124h193z" />
    <glyph glyph-name="w" unicode="w" horiz-adv-x="800" 
d="M800 497l-151 -497h-192l-33 116q-15 52 -30 128h-1q-10 -53 -31 -125l-34 -119h-178l-150 497h197l20 -77q30 -113 44 -178h2q12 78 38 168l24 87h163l23 -77q32 -111 45 -178h2q15 87 35 168l22 87h185z" />
    <glyph glyph-name="x" unicode="x" horiz-adv-x="542" 
d="M545 0h-225l-54 133l-54 -133h-215l155 253l-144 244h214l58 -131l57 131h199l-132 -245z" />
    <glyph glyph-name="y" unicode="y" horiz-adv-x="534" 
d="M539 497l-201 -536q-43 -116 -95.5 -158t-144.5 -42q-40 0 -77 10l9 154q38 -13 74 -13q46 0 61 51l11 37l-176 497h200l29 -91q22 -70 40 -156h2q21 95 45 164l28 83h195z" />
    <glyph glyph-name="z" unicode="z" horiz-adv-x="455" 
d="M413 0h-371v130l144 205q-14 -2 -70 -2h-68v164h362v-131l-138 -200q12 1 80 1h61v-167z" />
    <glyph glyph-name="braceleft" unicode="{" horiz-adv-x="392" 
d="M361 -213h-26q-116 0 -167.5 60.5t-51.5 202.5v77q0 63 -24 87.5t-68 26.5v134q45 2 68.5 24t23.5 84v42q0 141 51.5 200.5t167.5 59.5h26v-147q-46 0 -60.5 -20t-14.5 -93v-42q0 -161 -91 -174v-2q91 -13 91 -180v-76q0 -74 14.5 -95t60.5 -21v-148z" />
    <glyph glyph-name="bar" unicode="|" horiz-adv-x="272" 
d="M205 -250h-145v1000h145v-1000z" />
    <glyph glyph-name="braceright" unicode="}" horiz-adv-x="392" 
d="M368 241q-44 -2 -68 -26.5t-24 -87.5v-77q0 -142 -51.5 -202.5t-167.5 -60.5h-26v148q46 0 60.5 21t14.5 95v76q0 167 91 180v2q-91 13 -91 174v42q0 73 -14.5 93t-60.5 20v147h26q116 0 167.5 -59.5t51.5 -200.5v-42q0 -62 23.5 -84t68.5 -24v-134z" />
    <glyph glyph-name="asciitilde" unicode="~" horiz-adv-x="563" 
d="M537 246q-55 -74 -163 -74q-40 0 -106 22.5t-97 22.5q-58 0 -94 -38l-54 137q67 64 163 64q46 0 105 -23t83 -23q56 0 109 46z" />
    <glyph glyph-name="nbspace" unicode="&#xa0;" horiz-adv-x="400" 
 />
    <glyph glyph-name="exclamdown" unicode="&#xa1;" horiz-adv-x="309" 
d="M251 410q0 -42 -30 -71t-74 -29t-74 29t-30 71t30 71t74 29t74 -29t30 -71zM244 -234h-197l17 514h160z" />
    <glyph glyph-name="cent" unicode="&#xa2;" horiz-adv-x="451" 
d="M404 41q-31 -10 -66 -13v-96h-134v97q-84 14 -126.5 77t-42.5 156q0 94 44.5 162t124.5 89v94h134v-84q38 -4 66 -12l-17 -151q-32 16 -73 16t-65.5 -27t-24.5 -76q0 -92 86 -92q41 0 81 17z" />
    <glyph glyph-name="sterling" unicode="&#xa3;" horiz-adv-x="480" 
d="M433 0h-386v142q42 13 62 32t20 60q0 14 -5 55h-71v140h57q-9 66 -9 80q0 199 210 199q49 0 95 -8l-11 -149q-28 7 -55 7t-40.5 -13t-13.5 -43q0 -12 7 -73h101v-140h-87q2 -18 2 -31q0 -61 -39 -102q42 2 63 2h100v-158z" />
    <glyph glyph-name="currency" unicode="&#xa4;" horiz-adv-x="555" 
d="M512 16q0 -121 -68 -189t-230 -68q-85 0 -161 21l14 164q75 -32 153 -32q59 0 86 20t27 64v7q0 27 4 51h-2q-38 -65 -125 -65q-90 0 -137.5 59.5t-47.5 170.5q0 125 73.5 207.5t210.5 82.5q104 0 203 -17v-476zM330 262v97q-16 4 -35 4q-78 0 -78 -124q0 -53 11.5 -75.5
t36.5 -22.5q28 0 46.5 31t18.5 90z" />
    <glyph glyph-name="yen" unicode="&#xa5;" horiz-adv-x="615" 
d="M615 675l-173 -339h97v-111h-141v-41h141v-113h-141v-71h-184v71h-141v113h141v41h-141v111h98l-171 339h201l63 -128q24 -50 42 -103h2q15 49 52 118l59 113h196z" />
    <glyph glyph-name="section" unicode="&#xa7;" horiz-adv-x="534" 
d="M493 269q0 -45 -21.5 -86t-53.5 -65q36 -41 36 -106q0 -73 -67.5 -128t-210.5 -55q-44 0 -89 9l10 154q36 -11 79 -11q41 0 60.5 11t19.5 27t-16 32.5t-40 30.5t-51.5 35.5t-51.5 45.5t-40 62.5t-16 85.5t20.5 87t53.5 64q-35 41 -35 104q0 76 65 130.5t200 54.5
q49 0 80 -8l-8 -152q-31 10 -73 10q-67 0 -67 -33q0 -15 16 -31t40 -31.5t52 -38t52 -48t40 -65t16 -85.5zM332 244q0 15 -4 26.5t-15.5 24t-21.5 21t-33 27t-39 32.5q-16 -16 -16 -41q0 -28 20 -51t93 -78q16 14 16 39z" />
    <glyph glyph-name="dieresis" unicode="&#xa8;" horiz-adv-x="546" 
d="M463 640q0 -38 -26.5 -64.5t-64.5 -26.5t-64.5 26.5t-26.5 64.5t26.5 64.5t64.5 26.5t64.5 -26.5t26.5 -64.5zM246 640q0 -38 -27 -64.5t-64 -26.5t-64 26.5t-27 64.5t27 64.5t64 26.5t64 -26.5t27 -64.5z" />
    <glyph glyph-name="copyright" unicode="&#xa9;" horiz-adv-x="770" 
d="M385 683q145 0 248 -102.5t103 -248.5t-103 -248.5t-248 -102.5t-248 102.5t-103 248.5t103 248.5t248 102.5zM385 550q-90 0 -154 -64t-64 -154t64 -154t154 -64t154 64t64 154t-64 154t-154 64zM487 179q-47 -24 -106 -24q-71 0 -117.5 47t-46.5 128q0 79 46 130
t131 51q51 0 87 -18l-22 -115q-15 17 -50 17q-47 0 -47 -64q0 -53 41 -53q33 0 57 14z" />
    <glyph glyph-name="ordfeminine" unicode="&#xaa;" horiz-adv-x="415" 
d="M372 299h-130q0 29 3 43h-1q-13 -25 -40.5 -40t-60.5 -15q-58 0 -87 31t-29 81q0 51 31.5 84t75 45t97.5 11v11q0 27 -49 27q-57 0 -116 -27l-14 114q70 24 153 24q165 0 165 -124v-183q0 -47 2 -82zM231 442v11q-38 0 -56 -7t-18 -28q0 -10 7.5 -17t19.5 -7
q20 0 33.5 14.5t13.5 33.5z" />
    <glyph glyph-name="guillemotleft" unicode="&#xab;" horiz-adv-x="570" 
d="M271 409l-75 -158l78 -155l-150 -60l-100 215l103 217zM532 399l-82 -148l85 -145l-145 -62l-112 207l115 209z" />
    <glyph glyph-name="logicalnot" unicode="&#xac;" horiz-adv-x="600" 
d="M547 49h-163v138h-354v147h517v-285z" />
    <glyph glyph-name="registered" unicode="&#xae;" horiz-adv-x="566" 
d="M384 426h-90l-16 70h-11v-70h-77v215h112q81 0 81 -65q0 -41 -31 -59q6 -6 11 -22zM296 567q0 17 -21 17h-8v-35h7q22 0 22 18zM283 684q-62 0 -106.5 -44.5t-44.5 -106.5t44.5 -106.5t106.5 -44.5t106.5 44.5t44.5 106.5t-44.5 106.5t-106.5 44.5zM283 781
q106 0 180 -72t74 -176t-74 -176t-180 -72t-180 72t-74 176t74 176t180 72z" />
    <glyph glyph-name="macron" unicode="&#xaf;" horiz-adv-x="285" 
d="M238 576h-211v130h211v-130z" />
    <glyph glyph-name="degree" unicode="&#xb0;" horiz-adv-x="405" 
d="M370 593q0 -77 -52 -119t-126 -42q-77 0 -121.5 42t-44.5 116q0 72 53.5 115t121.5 43q87 0 128 -43t41 -112zM240 594q0 18 -11 31t-28 13q-20 0 -32.5 -13t-12.5 -34q0 -22 11.5 -34.5t31.5 -12.5t30.5 14t10.5 36z" />
    <glyph glyph-name="plusminus" unicode="&#xb1;" horiz-adv-x="610" 
d="M560 255h-168v-167h-174v167h-168v150h168v165h174v-165h168v-150zM554 -104h-498v152h498v-152z" />
    <glyph glyph-name="acute" unicode="&#xb4;" horiz-adv-x="400" 
d="M364 635l-231 -89l-55 105l221 109z" />
    <glyph glyph-name="mu" unicode="&#xb5;" horiz-adv-x="603" 
d="M548 0h-170q0 30 2 53h-1q-13 -26 -39 -43t-58 -17q-24 0 -45 8h-1q1 -21 1 -85v-149h-182v730h182v-288q0 -42 13.5 -56.5t37.5 -14.5q31 0 54.5 32t23.5 85v242h182v-497z" />
    <glyph glyph-name="paragraph" unicode="&#xb6;" horiz-adv-x="622" 
d="M379 52v623h206v-148h-57v-623h-214v148h65zM298 675v-469q-131 0 -195.5 66t-64.5 168q0 111 72 173t188 62z" />
    <glyph glyph-name="periodcentered" unicode="&#xb7;" horiz-adv-x="320" 
d="M160 395q45 0 77.5 -32.5t32.5 -77.5t-32.5 -77.5t-77.5 -32.5t-77.5 32.5t-32.5 77.5t32.5 77.5t77.5 32.5z" />
    <glyph glyph-name="cedilla" unicode="&#xb8;" horiz-adv-x="400" 
d="M282 -51q17 -32 21.5 -60.5t-5.5 -56.5t-42.5 -51.5t-86.5 -39.5l-87 67q92 53 38 141h162z" />
    <glyph glyph-name="ordmasculine" unicode="&#xba;" horiz-adv-x="435" 
d="M410 492q0 -92 -58 -148t-145 -56q-80 0 -131 47t-51 148q0 96 58 151t143 55q184 0 184 -197zM270 488q0 41 -12.5 59.5t-40.5 18.5q-22 0 -37.5 -19t-15.5 -59q0 -78 51 -78q55 0 55 78z" />
    <glyph glyph-name="guillemotright" unicode="&#xbb;" horiz-adv-x="570" 
d="M299 95l75 158l-78 155l150 60l100 -215l-103 -217zM38 105l82 148l-85 145l145 62l112 -207l-115 -209z" />
    <glyph glyph-name="questiondown" unicode="&#xbf;" horiz-adv-x="444" 
d="M368 410q0 -42 -30 -71t-74 -29t-74 29t-30 71t30 71t74 29t74 -29t30 -71zM416 -74l-22 -165q-97 2 -170 21.5t-114.5 52t-61.5 70.5t-20 81q0 40 14 72.5t33.5 52t41.5 40t39 36t24 40.5t-2 53h178q24 -61 7 -106.5t-47 -69t-59.5 -50t-29.5 -49.5q0 -79 189 -79z" />
    <glyph glyph-name="Agrave" unicode="&#xc0;" horiz-adv-x="641" 
d="M653 0h-203l-35 110h-208l-34 -110h-184l220 675h213zM368 256l-27 85q-25 82 -31 117h-2q-7 -47 -33 -128l-23 -74h116zM404 812l-57 -107l-231 89l67 127z" />
    <glyph glyph-name="Aacute" unicode="&#xc1;" horiz-adv-x="641" 
d="M653 0h-203l-35 110h-208l-34 -110h-184l220 675h213zM368 256l-27 85q-25 82 -31 117h-2q-7 -47 -33 -128l-23 -74h116zM482 795l-231 -89l-55 105l221 109z" />
    <glyph glyph-name="Acircumflex" unicode="&#xc2;" horiz-adv-x="641" 
d="M653 0h-203l-35 110h-208l-34 -110h-184l220 675h213zM368 256l-27 85q-25 82 -31 117h-2q-7 -47 -33 -128l-23 -74h116zM486 821l-47 -108l-124 57l-124 -57l-45 107l169 81z" />
    <glyph glyph-name="Atilde" unicode="&#xc3;" horiz-adv-x="641" 
d="M653 0h-203l-35 110h-208l-34 -110h-184l220 675h213zM368 256l-27 85q-25 82 -31 117h-2q-7 -47 -33 -128l-23 -74h116zM500 754q-19 -16 -52.5 -30.5t-60.5 -14.5q-45 0 -88 25.5t-75 25.5q-35 0 -69 -32l-31 120q55 47 112 47q40 0 85 -25.5t76 -25.5q42 0 72 30z" />
    <glyph glyph-name="Adieresis" unicode="&#xc4;" horiz-adv-x="641" 
d="M653 0h-203l-35 110h-208l-34 -110h-184l220 675h213zM368 256l-27 85q-25 82 -31 117h-2q-7 -47 -33 -128l-23 -74h116zM514 800q0 -38 -27 -64.5t-64 -26.5t-64 26.5t-27 64.5t27 64.5t64 26.5t64 -26.5t27 -64.5zM297 800q0 -38 -26.5 -64.5t-64.5 -26.5t-64.5 26.5
t-26.5 64.5t26.5 64.5t64.5 26.5t64.5 -26.5t26.5 -64.5z" />
    <glyph glyph-name="Aring" unicode="&#xc5;" horiz-adv-x="641" 
d="M653 0h-203l-35 110h-208l-34 -110h-184l220 675h213zM368 256l-27 85q-25 82 -31 117h-2q-7 -47 -33 -128l-23 -74h116zM463 777q0 -60 -42.5 -99.5t-104.5 -39.5t-104.5 39.5t-42.5 99.5t42.5 99.5t104.5 39.5t104.5 -39.5t42.5 -99.5zM364 777q0 19 -14 33.5t-34 14.5
t-34 -14.5t-14 -33.5t14 -33.5t34 -14.5t34 14.5t14 33.5z" />
    <glyph glyph-name="AE" unicode="&#xc6;" horiz-adv-x="792" 
d="M755 0h-389v129h-158l-52 -129h-188l299 675h484v-158h-207v-95h200v-152h-200v-109h211v-161zM366 273v246h-1q-28 -77 -57 -147l-41 -99h99z" />
    <glyph glyph-name="Ccedilla" unicode="&#xc7;" horiz-adv-x="541" 
d="M506 14q-72 -23 -159 -23q-76 0 -134.5 20.5t-93 52t-56 75.5t-29 85t-7.5 86q0 171 92 270.5t256 99.5q68 0 130 -16l-21 -168q-53 15 -109 15q-67 0 -105 -44.5t-38 -125.5q0 -180 150 -180q58 0 102 19zM399 -51q17 -32 21.5 -60.5t-5.5 -56.5t-42.5 -51.5
t-86.5 -39.5l-87 67q92 53 38 141h162z" />
    <glyph glyph-name="Egrave" unicode="&#xc8;" horiz-adv-x="480" 
d="M443 0h-395v675h395v-158h-209v-95h198v-152h-198v-109h209v-161zM358 812l-57 -107l-231 89l67 127z" />
    <glyph glyph-name="Eacute" unicode="&#xc9;" horiz-adv-x="480" 
d="M443 0h-395v675h395v-158h-209v-95h198v-152h-198v-109h209v-161zM412 795l-231 -89l-55 105l221 109z" />
    <glyph glyph-name="Ecircumflex" unicode="&#xca;" horiz-adv-x="480" 
d="M443 0h-395v675h395v-158h-209v-95h198v-152h-198v-109h209v-161zM416 821l-47 -108l-124 57l-124 -57l-45 107l169 81z" />
    <glyph glyph-name="Edieresis" unicode="&#xcb;" horiz-adv-x="480" 
d="M443 0h-395v675h395v-158h-209v-95h198v-152h-198v-109h209v-161zM447 800q0 -38 -26.5 -64.5t-64.5 -26.5t-64.5 26.5t-26.5 64.5t26.5 64.5t64.5 26.5t64.5 -26.5t26.5 -64.5zM230 800q0 -38 -27 -64.5t-64 -26.5t-64 26.5t-27 64.5t27 64.5t64 26.5t64 -26.5t27 -64.5
z" />
    <glyph glyph-name="Igrave" unicode="&#xcc;" horiz-adv-x="282" 
d="M234 0h-186v675h186v-675zM275 812l-57 -107l-231 89l67 127z" />
    <glyph glyph-name="Iacute" unicode="&#xcd;" horiz-adv-x="282" 
d="M234 0h-186v675h186v-675zM295 795l-231 -89l-55 105l221 109z" />
    <glyph glyph-name="Icircumflex" unicode="&#xce;" horiz-adv-x="282" 
d="M234 0h-186v675h186v-675zM313 821l-47 -108l-124 57l-124 -57l-45 107l169 81z" />
    <glyph glyph-name="Idieresis" unicode="&#xcf;" horiz-adv-x="282" 
d="M234 0h-186v675h186v-675zM339 800q0 -38 -26.5 -64.5t-64.5 -26.5t-64.5 26.5t-26.5 64.5t26.5 64.5t64.5 26.5t64.5 -26.5t26.5 -64.5zM122 800q0 -38 -27 -64.5t-64 -26.5t-64 26.5t-27 64.5t27 64.5t64 26.5t64 -26.5t27 -64.5z" />
    <glyph glyph-name="Ntilde" unicode="&#xd1;" horiz-adv-x="686" 
d="M638 0h-236l-113 231q-42 85 -67 152q5 -50 5 -107v-276h-179v675h238l98 -201q63 -130 82 -175q-7 64 -7 140v236h179v-675zM525 754q-19 -16 -52.5 -30.5t-60.5 -14.5q-45 0 -88 25.5t-75 25.5q-35 0 -69 -32l-31 120q55 47 112 47q41 0 85 -25.5t76 -25.5q42 0 72 30z
" />
    <glyph glyph-name="Ograve" unicode="&#xd2;" horiz-adv-x="701" 
d="M680 349q0 -162 -98 -262.5t-245 -100.5q-156 0 -236 89.5t-80 252.5q0 160 99 260.5t244 100.5q142 0 229 -83t87 -257zM482 340q0 179 -132 179q-54 0 -92.5 -44t-38.5 -133q0 -185 127 -185q53 0 94.5 43t41.5 140zM480 812l-57 -107l-231 89l67 127z" />
    <glyph glyph-name="Oacute" unicode="&#xd3;" horiz-adv-x="701" 
d="M680 349q0 -162 -98 -262.5t-245 -100.5q-156 0 -236 89.5t-80 252.5q0 160 99 260.5t244 100.5q142 0 229 -83t87 -257zM482 340q0 179 -132 179q-54 0 -92.5 -44t-38.5 -133q0 -185 127 -185q53 0 94.5 43t41.5 140zM541 795l-231 -89l-55 105l221 109z" />
    <glyph glyph-name="Ocircumflex" unicode="&#xd4;" horiz-adv-x="701" 
d="M680 349q0 -162 -98 -262.5t-245 -100.5q-156 0 -236 89.5t-80 252.5q0 160 99 260.5t244 100.5q142 0 229 -83t87 -257zM482 340q0 179 -132 179q-54 0 -92.5 -44t-38.5 -133q0 -185 127 -185q53 0 94.5 43t41.5 140zM532 821l-47 -108l-124 57l-124 -57l-45 107l169 81
z" />
    <glyph glyph-name="Otilde" unicode="&#xd5;" horiz-adv-x="701" 
d="M680 349q0 -162 -98 -262.5t-245 -100.5q-156 0 -236 89.5t-80 252.5q0 160 99 260.5t244 100.5q142 0 229 -83t87 -257zM482 340q0 179 -132 179q-54 0 -92.5 -44t-38.5 -133q0 -185 127 -185q53 0 94.5 43t41.5 140zM545 759q-19 -16 -52.5 -30.5t-60.5 -14.5
q-45 0 -88 25.5t-75 25.5q-35 0 -69 -32l-31 120q55 47 112 47q41 0 85 -25.5t76 -25.5q42 0 72 30z" />
    <glyph glyph-name="Odieresis" unicode="&#xd6;" horiz-adv-x="701" 
d="M680 349q0 -162 -98 -262.5t-245 -100.5q-156 0 -236 89.5t-80 252.5q0 160 99 260.5t244 100.5q142 0 229 -83t87 -257zM482 340q0 179 -132 179q-54 0 -92.5 -44t-38.5 -133q0 -185 127 -185q53 0 94.5 43t41.5 140zM566 800q0 -38 -27 -64.5t-64 -26.5t-64 26.5
t-27 64.5t27 64.5t64 26.5t64 -26.5t27 -64.5zM349 800q0 -38 -26.5 -64.5t-64.5 -26.5t-64.5 26.5t-26.5 64.5t26.5 64.5t64.5 26.5t64.5 -26.5t26.5 -64.5z" />
    <glyph glyph-name="Oslash" unicode="&#xd8;" horiz-adv-x="701" 
d="M675 343q0 -157 -96.5 -257t-238.5 -100q-26 0 -38 1l-31 -94l-133 40l31 92q-147 79 -147 303q0 165 94 263t243 98q20 0 30 -1l30 91l132 -40l-28 -86q152 -77 152 -310zM489 337q0 94 -27 132l-106 -320q11 0 23 3q46 11 78 55.5t32 129.5zM334 520q-22 -2 -40 -10
q-86 -36 -86 -171q0 -92 24 -126z" />
    <glyph glyph-name="Ugrave" unicode="&#xd9;" horiz-adv-x="664" 
d="M616 268q0 -143 -77 -212.5t-217 -69.5q-151 0 -212.5 69t-61.5 189v431h186v-422q0 -57 22 -84t77 -27q56 0 77.5 26t21.5 90v417h184v-407zM433 812l-57 -107l-231 89l67 127z" />
    <glyph glyph-name="Uacute" unicode="&#xda;" horiz-adv-x="664" 
d="M616 268q0 -143 -77 -212.5t-217 -69.5q-151 0 -212.5 69t-61.5 189v431h186v-422q0 -57 22 -84t77 -27q56 0 77.5 26t21.5 90v417h184v-407zM513 795l-231 -89l-55 105l221 109z" />
    <glyph glyph-name="Ucircumflex" unicode="&#xdb;" horiz-adv-x="664" 
d="M616 268q0 -143 -77 -212.5t-217 -69.5q-151 0 -212.5 69t-61.5 189v431h186v-422q0 -57 22 -84t77 -27q56 0 77.5 26t21.5 90v417h184v-407zM503 821l-47 -108l-124 57l-124 -57l-45 107l169 81z" />
    <glyph glyph-name="Udieresis" unicode="&#xdc;" horiz-adv-x="664" 
d="M616 268q0 -143 -77 -212.5t-217 -69.5q-151 0 -212.5 69t-61.5 189v431h186v-422q0 -57 22 -84t77 -27q56 0 77.5 26t21.5 90v417h184v-407zM523 800q0 -38 -26.5 -64.5t-64.5 -26.5t-64.5 26.5t-26.5 64.5t26.5 64.5t64.5 26.5t64.5 -26.5t26.5 -64.5zM306 800
q0 -38 -27 -64.5t-64 -26.5t-64 26.5t-27 64.5t27 64.5t64 26.5t64 -26.5t27 -64.5z" />
    <glyph glyph-name="germandbls" unicode="&#xdf;" horiz-adv-x="629" 
d="M611 168q0 -84 -61.5 -133t-156.5 -49q-74 0 -117 19l8 144q43 -25 91 -25q46 0 46 28q0 16 -15.5 29.5t-37.5 26.5t-44.5 30.5t-38 48.5t-15.5 73q0 38 13 69t28 47.5t28 39t13 46.5q0 37 -47 37q-35 0 -55.5 -27.5t-20.5 -78.5v-493h-182v486q0 128 74 190.5t188 62.5
q105 0 170 -43.5t65 -123.5q0 -41 -14 -71t-30 -44t-30 -33t-14 -40q0 -16 16 -30.5t39 -28.5t45.5 -32.5t38.5 -50.5t16 -74z" />
    <glyph glyph-name="agrave" unicode="&#xe0;" horiz-adv-x="529" 
d="M484 0h-170q0 40 4 63h-1q-18 -35 -57 -55t-87 -20q-72 0 -110 39t-38 103q0 95 77 142.5t194 47.5v11q0 21 -18 30t-61 9q-73 0 -142 -33l-15 148q92 26 183 26q134 0 185.5 -44t51.5 -140v-221q0 -69 4 -106zM296 190v17q-57 0 -78.5 -12.5t-21.5 -37.5q0 -14 10 -23
t27 -9q27 0 45 19.5t18 45.5zM400 652l-57 -107l-231 89l67 127z" />
    <glyph glyph-name="aacute" unicode="&#xe1;" horiz-adv-x="529" 
d="M484 0h-170q0 40 4 63h-1q-18 -35 -57 -55t-87 -20q-72 0 -110 39t-38 103q0 95 77 142.5t194 47.5v11q0 21 -18 30t-61 9q-73 0 -142 -33l-15 148q92 26 183 26q134 0 185.5 -44t51.5 -140v-221q0 -69 4 -106zM296 190v17q-57 0 -78.5 -12.5t-21.5 -37.5q0 -14 10 -23
t27 -9q27 0 45 19.5t18 45.5zM438 635l-231 -89l-55 105l221 109z" />
    <glyph glyph-name="acircumflex" unicode="&#xe2;" horiz-adv-x="529" 
d="M484 0h-170q0 40 4 63h-1q-18 -35 -57 -55t-87 -20q-72 0 -110 39t-38 103q0 95 77 142.5t194 47.5v11q0 21 -18 30t-61 9q-73 0 -142 -33l-15 148q92 26 183 26q134 0 185.5 -44t51.5 -140v-221q0 -69 4 -106zM296 190v17q-57 0 -78.5 -12.5t-21.5 -37.5q0 -14 10 -23
t27 -9q27 0 45 19.5t18 45.5zM440 661l-47 -108l-124 57l-124 -57l-45 107l169 81z" />
    <glyph glyph-name="atilde" unicode="&#xe3;" horiz-adv-x="529" 
d="M484 0h-170q0 40 4 63h-1q-18 -35 -57 -55t-87 -20q-72 0 -110 39t-38 103q0 95 77 142.5t194 47.5v11q0 21 -18 30t-61 9q-73 0 -142 -33l-15 148q92 26 183 26q134 0 185.5 -44t51.5 -140v-221q0 -69 4 -106zM296 190v17q-57 0 -78.5 -12.5t-21.5 -37.5q0 -14 10 -23
t27 -9q27 0 45 19.5t18 45.5zM455 594q-19 -16 -52.5 -30.5t-60.5 -14.5q-45 0 -88 25.5t-75 25.5q-35 0 -69 -32l-31 120q55 47 112 47q41 0 85 -25.5t76 -25.5q42 0 72 30z" />
    <glyph glyph-name="adieresis" unicode="&#xe4;" horiz-adv-x="529" 
d="M484 0h-170q0 40 4 63h-1q-18 -35 -57 -55t-87 -20q-72 0 -110 39t-38 103q0 95 77 142.5t194 47.5v11q0 21 -18 30t-61 9q-73 0 -142 -33l-15 148q92 26 183 26q134 0 185.5 -44t51.5 -140v-221q0 -69 4 -106zM296 190v17q-57 0 -78.5 -12.5t-21.5 -37.5q0 -14 10 -23
t27 -9q27 0 45 19.5t18 45.5zM467 640q0 -38 -26.5 -64.5t-64.5 -26.5t-64.5 26.5t-26.5 64.5t26.5 64.5t64.5 26.5t64.5 -26.5t26.5 -64.5zM250 640q0 -38 -27 -64.5t-64 -26.5t-64 26.5t-27 64.5t27 64.5t64 26.5t64 -26.5t27 -64.5z" />
    <glyph glyph-name="aring" unicode="&#xe5;" horiz-adv-x="529" 
d="M484 0h-170q0 40 4 63h-1q-18 -35 -57 -55t-87 -20q-72 0 -110 39t-38 103q0 95 77 142.5t194 47.5v11q0 21 -18 30t-61 9q-73 0 -142 -33l-15 148q92 26 183 26q134 0 185.5 -44t51.5 -140v-221q0 -69 4 -106zM296 190v17q-57 0 -78.5 -12.5t-21.5 -37.5q0 -14 10 -23
t27 -9q27 0 45 19.5t18 45.5zM409 674q0 -60 -42.5 -99.5t-104.5 -39.5t-104.5 39.5t-42.5 99.5t42.5 99.5t104.5 39.5t104.5 -39.5t42.5 -99.5zM310 674q0 20 -14 34t-34 14t-34 -14t-14 -34t14 -34t34 -14t34 14t14 34z" />
    <glyph glyph-name="ae" unicode="&#xe6;" horiz-adv-x="791" 
d="M763 269q0 -37 -6 -78h-282q2 -28 29 -45.5t78 -17.5q77 0 147 31l16 -136q-87 -35 -192 -35q-149 0 -212 84l-1 -2q-61 -82 -171 -82q-72 0 -108 39t-36 103q0 95 77 142.5t194 47.5v10q0 22 -18 31t-61 9q-73 0 -142 -33l-15 148q95 27 182 27q111 0 168 -37h1
q49 35 128 35q111 0 167.5 -66t56.5 -175zM586 309q3 69 -51 69q-26 0 -42.5 -19t-18.5 -50h112zM296 190v17q-57 0 -78.5 -13t-21.5 -38q0 -31 37 -31q27 0 45 19.5t18 45.5z" />
    <glyph glyph-name="ccedilla" unicode="&#xe7;" horiz-adv-x="409" 
d="M381 7q-51 -19 -123 -19q-234 0 -234 245q0 119 68 197.5t202 78.5q41 0 87 -11l-18 -158q-38 12 -65 12q-83 0 -83 -107q0 -48 22.5 -73t60.5 -25q40 0 69 14zM313 -51q17 -32 21.5 -60.5t-5.5 -56.5t-42.5 -51.5t-86.5 -39.5l-87 67q92 53 38 141h162z" />
    <glyph glyph-name="egrave" unicode="&#xe8;" horiz-adv-x="524" 
d="M496 269q0 -37 -6 -78h-282q2 -28 29 -45.5t78 -17.5q77 0 147 31l16 -136q-88 -35 -192 -35q-262 0 -262 254q0 119 65 193.5t183 74.5q111 0 167.5 -66t56.5 -175zM319 309q3 69 -51 69q-26 0 -42.5 -19t-18.5 -50h112zM401 652l-57 -107l-231 89l67 127z" />
    <glyph glyph-name="eacute" unicode="&#xe9;" horiz-adv-x="524" 
d="M496 269q0 -37 -6 -78h-282q2 -28 29 -45.5t78 -17.5q77 0 147 31l16 -136q-88 -35 -192 -35q-262 0 -262 254q0 119 65 193.5t183 74.5q111 0 167.5 -66t56.5 -175zM319 309q3 69 -51 69q-26 0 -42.5 -19t-18.5 -50h112zM447 635l-231 -89l-55 105l221 109z" />
    <glyph glyph-name="ecircumflex" unicode="&#xea;" horiz-adv-x="524" 
d="M496 269q0 -37 -6 -78h-282q2 -28 29 -45.5t78 -17.5q77 0 147 31l16 -136q-88 -35 -192 -35q-262 0 -262 254q0 119 65 193.5t183 74.5q111 0 167.5 -66t56.5 -175zM319 309q3 69 -51 69q-26 0 -42.5 -19t-18.5 -50h112zM438 661l-47 -108l-124 57l-124 -57l-45 107
l169 81z" />
    <glyph glyph-name="edieresis" unicode="&#xeb;" horiz-adv-x="524" 
d="M496 269q0 -37 -6 -78h-282q2 -28 29 -45.5t78 -17.5q77 0 147 31l16 -136q-88 -35 -192 -35q-262 0 -262 254q0 119 65 193.5t183 74.5q111 0 167.5 -66t56.5 -175zM319 309q3 69 -51 69q-26 0 -42.5 -19t-18.5 -50h112zM472 640q0 -38 -27 -64.5t-64 -26.5t-64 26.5
t-27 64.5t27 64.5t64 26.5t64 -26.5t27 -64.5zM255 640q0 -38 -26.5 -64.5t-64.5 -26.5t-64.5 26.5t-26.5 64.5t26.5 64.5t64.5 26.5t64.5 -26.5t26.5 -64.5z" />
    <glyph glyph-name="igrave" unicode="&#xec;" horiz-adv-x="276" 
d="M230 0h-182v497h182v-497zM279 652l-57 -107l-231 89l67 127z" />
    <glyph glyph-name="iacute" unicode="&#xed;" horiz-adv-x="276" 
d="M230 0h-182v497h182v-497zM285 635l-231 -89l-55 105l221 109z" />
    <glyph glyph-name="icircumflex" unicode="&#xee;" horiz-adv-x="276" 
d="M230 0h-182v497h182v-497zM308 661l-47 -108l-124 57l-124 -57l-45 107l169 81z" />
    <glyph glyph-name="idieresis" unicode="&#xef;" horiz-adv-x="276" 
d="M230 0h-182v497h182v-497zM340 640q0 -38 -27 -64.5t-64 -26.5t-64 26.5t-27 64.5t27 64.5t64 26.5t64 -26.5t27 -64.5zM123 640q0 -38 -26.5 -64.5t-64.5 -26.5t-64.5 26.5t-26.5 64.5t26.5 64.5t64.5 26.5t64.5 -26.5t26.5 -64.5z" />
    <glyph glyph-name="ntilde" unicode="&#xf1;" 
d="M517 0h-182v314q0 41 -28 41q-30 0 -54 -35.5t-24 -77.5v-242h-182v497h168q0 -39 -5 -66h1q55 78 159 78q77 0 112 -43.5t35 -113.5v-352zM457 594q-19 -16 -52.5 -30.5t-60.5 -14.5q-45 0 -88 25.5t-75 25.5q-35 0 -69 -32l-31 120q55 47 112 47q40 0 84.5 -25.5
t76.5 -25.5q42 0 72 30z" />
    <glyph glyph-name="ograve" unicode="&#xf2;" 
d="M541 260q0 -122 -78 -197t-193 -75q-247 0 -247 246q0 124 77.5 199.5t194.5 75.5q121 0 183.5 -64.5t62.5 -184.5zM352 249q0 54 -15.5 79t-52.5 25q-30 0 -51 -25t-21 -74q0 -58 15.5 -83t52.5 -25q35 0 53.5 28t18.5 75zM413 652l-57 -107l-231 89l67 127z" />
    <glyph glyph-name="oacute" unicode="&#xf3;" 
d="M541 260q0 -122 -78 -197t-193 -75q-247 0 -247 246q0 124 77.5 199.5t194.5 75.5q121 0 183.5 -64.5t62.5 -184.5zM352 249q0 54 -15.5 79t-52.5 25q-30 0 -51 -25t-21 -74q0 -58 15.5 -83t52.5 -25q35 0 53.5 28t18.5 75zM459 635l-231 -89l-55 105l221 109z" />
    <glyph glyph-name="ocircumflex" unicode="&#xf4;" 
d="M541 260q0 -122 -78 -197t-193 -75q-247 0 -247 246q0 124 77.5 199.5t194.5 75.5q121 0 183.5 -64.5t62.5 -184.5zM352 249q0 54 -15.5 79t-52.5 25q-30 0 -51 -25t-21 -74q0 -58 15.5 -83t52.5 -25q35 0 53.5 28t18.5 75zM461 661l-47 -108l-124 57l-124 -57l-45 107
l169 81z" />
    <glyph glyph-name="otilde" unicode="&#xf5;" 
d="M541 260q0 -122 -78 -197t-193 -75q-247 0 -247 246q0 124 77.5 199.5t194.5 75.5q121 0 183.5 -64.5t62.5 -184.5zM352 249q0 54 -15.5 79t-52.5 25q-30 0 -51 -25t-21 -74q0 -58 15.5 -83t52.5 -25q35 0 53.5 28t18.5 75zM481 594q-19 -16 -52.5 -30.5t-60.5 -14.5
q-45 0 -88 25.5t-75 25.5q-35 0 -69 -32l-31 120q55 47 112 47q41 0 85 -25.5t76 -25.5q42 0 72 30z" />
    <glyph glyph-name="odieresis" unicode="&#xf6;" 
d="M541 260q0 -122 -78 -197t-193 -75q-247 0 -247 246q0 124 77.5 199.5t194.5 75.5q121 0 183.5 -64.5t62.5 -184.5zM352 249q0 54 -15.5 79t-52.5 25q-30 0 -51 -25t-21 -74q0 -58 15.5 -83t52.5 -25q35 0 53.5 28t18.5 75zM492 640q0 -38 -27 -64.5t-64 -26.5t-64 26.5
t-27 64.5t27 64.5t64 26.5t64 -26.5t27 -64.5zM275 640q0 -38 -26.5 -64.5t-64.5 -26.5t-64.5 26.5t-26.5 64.5t26.5 64.5t64.5 26.5t64.5 -26.5t26.5 -64.5z" />
    <glyph glyph-name="divide" unicode="&#xf7;" horiz-adv-x="630" 
d="M419 458q0 -43 -30.5 -73.5t-73.5 -30.5t-73.5 30.5t-30.5 73.5t30.5 73.5t73.5 30.5t73.5 -30.5t30.5 -73.5zM580 182h-530v152h530v-152zM419 58q0 -43 -30.5 -73.5t-73.5 -30.5t-73.5 30.5t-30.5 73.5t30.5 73.5t73.5 30.5t73.5 -30.5t30.5 -73.5z" />
    <glyph glyph-name="oslash" unicode="&#xf8;" horiz-adv-x="556" 
d="M533 258q0 -123 -75 -197.5t-190 -74.5q-15 0 -37 2l-38 -98l-97 29l37 95q-110 58 -110 225q0 127 75 199.5t191 72.5q15 0 39 -2l35 92l97 -29l-35 -89q108 -56 108 -225zM367 253q0 40 -8 65l-72 -184l18 3q62 19 62 116zM271 363q-9 0 -20 -3q-27 -9 -44 -37.5
t-17 -74.5q0 -40 11 -63z" />
    <glyph glyph-name="ugrave" unicode="&#xf9;" horiz-adv-x="562" 
d="M516 0h-168q0 38 5 66h-1q-55 -78 -159 -78q-77 0 -112 43.5t-35 113.5v352h182v-314q0 -41 28 -41q30 0 54 35.5t24 77.5v242h182v-497zM396 652l-57 -107l-231 89l67 127z" />
    <glyph glyph-name="uacute" unicode="&#xfa;" horiz-adv-x="562" 
d="M516 0h-168q0 38 5 66h-1q-55 -78 -159 -78q-77 0 -112 43.5t-35 113.5v352h182v-314q0 -41 28 -41q30 0 54 35.5t24 77.5v242h182v-497zM450 635l-231 -89l-55 105l221 109z" />
    <glyph glyph-name="ucircumflex" unicode="&#xfb;" horiz-adv-x="562" 
d="M516 0h-168q0 38 5 66h-1q-55 -78 -159 -78q-77 0 -112 43.5t-35 113.5v352h182v-314q0 -41 28 -41q30 0 54 35.5t24 77.5v242h182v-497zM449 661l-47 -108l-124 57l-124 -57l-45 107l169 81z" />
    <glyph glyph-name="udieresis" unicode="&#xfc;" horiz-adv-x="562" 
d="M516 0h-168q0 38 5 66h-1q-55 -78 -159 -78q-77 0 -112 43.5t-35 113.5v352h182v-314q0 -41 28 -41q30 0 54 35.5t24 77.5v242h182v-497zM472 640q0 -38 -27 -64.5t-64 -26.5t-64 26.5t-27 64.5t27 64.5t64 26.5t64 -26.5t27 -64.5zM255 640q0 -38 -26.5 -64.5
t-64.5 -26.5t-64.5 26.5t-26.5 64.5t26.5 64.5t64.5 26.5t64.5 -26.5t26.5 -64.5z" />
    <glyph glyph-name="ydieresis" unicode="&#xff;" horiz-adv-x="534" 
d="M539 497l-201 -536q-43 -116 -95.5 -158t-144.5 -42q-40 0 -77 10l9 154q38 -13 74 -13q46 0 61 51l11 37l-176 497h200l29 -91q22 -70 40 -156h2q21 95 45 164l28 83h195zM463 640q0 -38 -26.5 -64.5t-64.5 -26.5t-64.5 26.5t-26.5 64.5t26.5 64.5t64.5 26.5t64.5 -26.5
t26.5 -64.5zM246 640q0 -38 -27 -64.5t-64 -26.5t-64 26.5t-27 64.5t27 64.5t64 26.5t64 -26.5t27 -64.5z" />
    <glyph glyph-name="dotlessi" unicode="&#x131;" horiz-adv-x="276" 
d="M230 0h-182v497h182v-497z" />
    <glyph glyph-name="OE" unicode="&#x152;" horiz-adv-x="802" 
d="M765 0h-273q-30 0 -81 -5.5t-83 -5.5q-149 0 -227.5 90.5t-78.5 248.5t93 256.5t230 98.5q35 0 76 -4t62 -4h282v-158h-209v-95h198v-152h-198v-109h209v-161zM379 161v351q-16 3 -35 3q-57 0 -93 -47t-36 -127q0 -91 33.5 -137.5t94.5 -46.5q20 0 36 4z" />
    <glyph glyph-name="oe" unicode="&#x153;" horiz-adv-x="841" 
d="M813 269q0 -37 -6 -78h-282q2 -28 29 -45.5t78 -17.5q77 0 147 31l16 -136q-87 -35 -192 -35q-117 0 -181 52q-61 -52 -160 -52q-114 0 -176.5 59t-62.5 194q0 124 75 196t189 72q98 0 155 -44q59 45 147 45q111 0 167.5 -66t56.5 -175zM636 309q3 69 -51 69
q-26 0 -42.5 -19t-18.5 -50h112zM348 249q0 58 -16.5 83t-55.5 25q-32 0 -54 -26.5t-22 -82.5q0 -58 16 -82.5t56 -24.5q37 0 56.5 29t19.5 79z" />
    <glyph glyph-name="Ydieresis" unicode="&#x178;" horiz-adv-x="597" 
d="M604 675l-214 -442v-233h-186v232l-211 443h202l63 -146q24 -55 40 -103h2q12 37 49 118l58 131h197zM491 800q0 -38 -26.5 -64.5t-64.5 -26.5t-64.5 26.5t-26.5 64.5t26.5 64.5t64.5 26.5t64.5 -26.5t26.5 -64.5zM274 800q0 -38 -27 -64.5t-64 -26.5t-64 26.5t-27 64.5
t27 64.5t64 26.5t64 -26.5t27 -64.5z" />
    <glyph glyph-name="florin" unicode="&#x192;" horiz-adv-x="423" 
d="M294 299l-17 -225q-13 -164 -63.5 -226.5t-163.5 -62.5q-26 0 -64 6l11 152q20 -5 41 -5q29 0 39.5 22.5t14.5 77.5l20 261h-59v140h70l5 58q11 128 62.5 187t160.5 59q27 0 63 -6l-11 -149q-20 5 -41 5q-25 0 -37 -18.5t-16 -68.5l-5 -67h75v-140h-85z" />
    <glyph glyph-name="circumflex" unicode="&#x2c6;" horiz-adv-x="416" 
d="M379 661l-47 -108l-124 57l-124 -57l-45 107l169 81z" />
    <glyph glyph-name="caron" unicode="&#x2c7;" horiz-adv-x="416" 
d="M379 628l-169 -81l-171 80l47 108l124 -57l124 57z" />
    <glyph glyph-name="breve" unicode="&#x2d8;" horiz-adv-x="333" 
d="M319 730q0 -78 -38.5 -129t-116.5 -51t-115 51.5t-37 128.5h117q0 -48 36 -48t36 48h118z" />
    <glyph glyph-name="dotaccent" unicode="&#x2d9;" horiz-adv-x="292" 
d="M252 653q0 -42 -31.5 -72t-75.5 -30q-42 0 -73.5 30t-31.5 72t31.5 72.5t73.5 30.5t74.5 -30.5t32.5 -72.5z" />
    <glyph glyph-name="ring" unicode="&#x2da;" horiz-adv-x="340" 
d="M317 635q0 -60 -42.5 -99.5t-104.5 -39.5t-104.5 39.5t-42.5 99.5t42.5 99.5t104.5 39.5t104.5 -39.5t42.5 -99.5zM218 635q0 19 -14 33.5t-34 14.5t-34 -14.5t-14 -33.5t14 -33.5t34 -14.5t34 14.5t14 33.5z" />
    <glyph glyph-name="ogonek" unicode="&#x2db;" horiz-adv-x="250" 
d="M240 -254q-51 -16 -110 -16q-57 0 -86.5 33.5t-29.5 84.5q0 64 54 148h132q-33 -63 -33 -120q0 -44 73 -26v-104z" />
    <glyph glyph-name="tilde" unicode="&#x2dc;" horiz-adv-x="425" 
d="M406 594q-19 -16 -52.5 -30.5t-60.5 -14.5q-45 0 -88 25.5t-75 25.5q-35 0 -69 -32l-31 120q55 47 112 47q40 0 85 -25.5t76 -25.5q42 0 72 30z" />
    <glyph glyph-name="hungarumlaut" unicode="&#x2dd;" horiz-adv-x="520" 
d="M544 655l-222 -110l-65 100l210 129zM287 717l-178 -172l-92 76l162 186z" />
    <glyph glyph-name="Delta" unicode="&#x394;" horiz-adv-x="784" 
d="M767 0h-750l289 700h174zM496 168l-111 283l-112 -283h223z" />
    <glyph glyph-name="Omega" unicode="&#x3a9;" horiz-adv-x="749" 
d="M696 0h-292v123q49 28 77 89t28 141q0 83 -37 134.5t-99 51.5t-101 -51.5t-39 -132.5q0 -166 108 -231v-124h-291v136h104q-99 74 -99 220q0 142 91 237.5t239 95.5q136 0 222 -85.5t86 -235.5q0 -70 -28.5 -133t-78.5 -99h110v-136z" />
    <glyph glyph-name="pi" unicode="&#x3c0;" horiz-adv-x="664" 
d="M632 0q-61 -14 -127 -14q-131 0 -131 126v236h-87v-348h-167v348h-82v149h583v-149h-80v-157q0 -48 9 -62t31 -14t40 5z" />
    <glyph glyph-name="endash" unicode="&#x2013;" horiz-adv-x="500" 
d="M500 209h-500v160h500v-160z" />
    <glyph glyph-name="emdash" unicode="&#x2014;" horiz-adv-x="1000" 
d="M1000 209h-1000v160h1000v-160z" />
    <glyph glyph-name="quoteleft" unicode="&#x2018;" horiz-adv-x="300" 
d="M197 764l73 -65q-55 -59 -63 -95.5t25 -72.5q19 -21 22.5 -50t-6.5 -55t-36 -44t-62 -18q-63 0 -94 59q-38 74 8 176q39 87 133 165z" />
    <glyph glyph-name="quoteright" unicode="&#x2019;" horiz-adv-x="300" 
d="M103 353l-73 65q55 59 63 95.5t-25 72.5q-19 21 -22.5 50t6.5 55t36 44t62 18q63 0 94 -59q38 -74 -8 -176q-39 -87 -133 -165z" />
    <glyph glyph-name="quotesinglbase" unicode="&#x201a;" horiz-adv-x="300" 
d="M103 -200l-73 65q55 59 63 95.5t-25 72.5q-19 21 -22.5 50t6.5 55t36 44t62 18q63 0 94 -59q38 -74 -8 -176q-39 -87 -133 -165z" />
    <glyph glyph-name="quotedblleft" unicode="&#x201c;" horiz-adv-x="560" 
d="M530 699q-55 -59 -63 -95.5t25 -72.5q19 -21 22.5 -50t-6.5 -55t-36 -44t-62 -18q-63 0 -94 59q-38 74 8 176q39 87 133 165zM270 699q-55 -59 -63 -95.5t25 -72.5q19 -21 22.5 -50t-6.5 -55t-36 -44t-62 -18q-63 0 -94 59q-38 74 8 176q39 87 133 165z" />
    <glyph glyph-name="quotedblright" unicode="&#x201d;" horiz-adv-x="560" 
d="M103 353l-73 65q55 59 63 95.5t-25 72.5q-19 21 -22.5 50t6.5 55t36 44t62 18q63 0 94 -59q38 -74 -8 -176q-39 -87 -133 -165zM363 353l-73 65q55 59 63 95.5t-25 72.5q-19 21 -22.5 50t6.5 55t36 44t62 18q63 0 94 -59q38 -74 -8 -176q-39 -87 -133 -165z" />
    <glyph glyph-name="quotedblbase" unicode="&#x201e;" horiz-adv-x="560" 
d="M103 -200l-73 65q55 59 63 95.5t-25 72.5q-19 21 -22.5 50t6.5 55t36 44t62 18q63 0 94 -59q38 -74 -8 -176q-39 -87 -133 -165zM363 -200l-73 65q55 59 63 95.5t-25 72.5q-19 21 -22.5 50t6.5 55t36 44t62 18q63 0 94 -59q38 -74 -8 -176q-39 -87 -133 -165z" />
    <glyph glyph-name="dagger" unicode="&#x2020;" horiz-adv-x="490" 
d="M458 412h-139l32 -117l-32 -304h-147l-33 304l32 117h-139v140h139l-32 178h212l-32 -178h139v-140z" />
    <glyph glyph-name="daggerdbl" unicode="&#x2021;" horiz-adv-x="490" 
d="M456 158h-135l32 -158h-216l32 158h-137v140h137l-30 67l30 67h-137v140h137l-30 158h212l-30 -158h137v-140h-137l30 -67l-30 -67h135v-140z" />
    <glyph glyph-name="bullet" unicode="&#x2022;" horiz-adv-x="426" 
d="M213 487q77 0 132.5 -55.5t55.5 -132.5t-55.5 -132.5t-132.5 -55.5q-78 0 -133 55.5t-55 132.5t55 132.5t133 55.5z" />
    <glyph glyph-name="ellipsis" unicode="&#x2026;" horiz-adv-x="808" 
d="M144 194q43 0 73.5 -30.5t30.5 -73.5t-30.5 -73.5t-73.5 -30.5t-73.5 30.5t-30.5 73.5t30.5 73.5t73.5 30.5zM404 194q43 0 73.5 -30.5t30.5 -73.5t-30.5 -73.5t-73.5 -30.5t-73.5 30.5t-30.5 73.5t30.5 73.5t73.5 30.5zM664 194q43 0 73.5 -30.5t30.5 -73.5t-30.5 -73.5
t-73.5 -30.5t-73.5 30.5t-30.5 73.5t30.5 73.5t73.5 30.5z" />
    <glyph glyph-name="perthousand" unicode="&#x2030;" horiz-adv-x="1177" 
d="M369 532q0 -85 -51.5 -137.5t-124.5 -52.5q-78 0 -122 48t-44 130q0 83 51 134.5t123 51.5q75 0 121.5 -43.5t46.5 -130.5zM228 525q0 34 -7 46t-21 12q-30 0 -30 -59t28 -59q12 0 21 15.5t9 44.5zM785 159q0 -85 -51.5 -137.5t-124.5 -52.5q-78 0 -122 48t-44 130
q0 84 51 135t123 51q74 0 121 -44t47 -130zM643 152q0 34 -7 46t-21 12q-29 0 -29 -59t27 -59q30 0 30 60zM1150 159q0 -85 -51.5 -137.5t-124.5 -52.5q-78 0 -122 48t-44 130q0 84 51 135t123 51q74 0 121 -44t47 -130zM1008 152q0 34 -7 46t-20 12q-30 0 -30 -59t28 -59
q29 0 29 60zM721 610l-499 -641l-132 96l499 641z" />
    <glyph glyph-name="guilsinglleft" unicode="&#x2039;" horiz-adv-x="311" 
d="M273 404l-79 -153l82 -150l-148 -62l-106 212l109 214z" />
    <glyph glyph-name="guilsinglright" unicode="&#x203a;" horiz-adv-x="311" 
d="M289 253l-109 -214l-142 61l79 153l-82 150l148 62z" />
    <glyph glyph-name="fraction" unicode="&#x2044;" horiz-adv-x="460" 
d="M526 706l-409 -844l-154 66l410 844z" />
    <glyph glyph-name="trademark" unicode="&#x2122;" horiz-adv-x="675" 
d="M663 394h-131l-12 83l-3 38l-6 -38l-14 -83h-108l-16 86l-5 35l-2 -35l-10 -86h-118l47 281h141l18 -78l6 -34l5 34l15 78h143zM244 566h-55v-172h-123v172h-59v109h237v-109z" />
    <glyph glyph-name="partialdiff" unicode="&#x2202;" horiz-adv-x="886" 
d="M861 277q0 -125 -73 -207.5t-205 -82.5q-111 0 -209 28v574q-20 4 -46 4q-34 0 -53.5 -16.5t-19.5 -47.5v-32h73v-140h-73v-357h-182v357h-63v140h63v35q0 96 64.5 153.5t205.5 57.5q81 0 213 -21v-166q0 -56 -7 -103h1q37 56 129 56q89 0 135.5 -62t46.5 -170zM669 258
q0 53 -12 76t-37 23q-27 0 -45.5 -30t-18.5 -85v-105q16 -4 35 -4q78 0 78 125z" />
    <glyph glyph-name="product" unicode="&#x220f;" horiz-adv-x="599" 
d="M556 -11q0 -228 -224 -228q-37 0 -74 10l9 153q28 -11 55 -11q52 0 52 55v389h-119v-357h-182v357h-63v140h63v12q0 119 64.5 176.5t200.5 57.5q86 0 175 -19l-29 -151q-66 19 -123 19q-56 0 -81 -18.5t-25 -58.5v-18h301v-508z" />
    <glyph glyph-name="summation" unicode="&#x2211;" horiz-adv-x="887" 
d="M844 0h-182v314q0 41 -28 41q-30 0 -54 -36t-24 -78v-241h-182v589q-20 4 -46 4q-34 0 -53.5 -16.5t-19.5 -47.5v-32h73v-140h-73v-357h-182v357h-63v140h63v35q0 96 64.5 153.5t205.5 57.5q81 0 213 -21v-174q0 -61 -9 -103h1q50 64 149 64q77 0 112 -43.5t35 -113.5
v-352z" />
    <glyph glyph-name="radical" unicode="&#x221a;" horiz-adv-x="628" 
d="M642 758l-228 -758h-214l-115 362h-80v135h233l59 -214q12 -43 15 -72h1q4 40 12 71l116 476h201z" />
    <glyph glyph-name="infinity" unicode="&#x221e;" horiz-adv-x="998" 
d="M973 280q0 -93 -62 -154t-175 -61q-107 0 -243 98q-136 -98 -252 -98q-104 0 -160 57t-56 145q0 95 64 154.5t164 59.5q114 0 249 -101q134 101 249 101q101 0 161.5 -56t60.5 -145zM802 276q0 20 -15 33.5t-39 13.5q-42 0 -110 -48q70 -51 107 -51q28 0 42.5 15t14.5 37
zM356 270q-70 53 -103 53q-28 0 -42.5 -14.5t-14.5 -36.5q0 -21 15 -34.5t39 -13.5q42 0 106 46z" />
    <glyph glyph-name="integral" unicode="&#x222b;" horiz-adv-x="892" 
d="M374 589q-20 4 -46 4q-34 0 -53.5 -16.5t-19.5 -47.5v-32h73v-140h-73v-357h-182v357h-63v140h63v35q0 96 64.5 153.5t205.5 57.5q81 0 213 -21v-416l102 191h224l-151 -228l161 -269h-225l-111 230v-230h-182v589z" />
    <glyph glyph-name="approxequal" unicode="&#x2248;" horiz-adv-x="600" 
d="M544 332q-72 -75 -155 -75q-37 0 -93 28t-90 28q-51 0 -102 -42l-57 118q35 33 79 54t84 21q47 0 103.5 -28t75.5 -28q48 0 95 43zM546 98q-33 -32 -77.5 -51.5t-80.5 -19.5q-45 0 -101 28t-81 28q-47 0 -99 -43l-60 119q79 75 152 75q46 0 101 -28t93 -28q56 0 95 39z
" />
    <glyph glyph-name="notequal" unicode="&#x2260;" horiz-adv-x="662" 
d="M664 733l-11 -148q-20 8 -46 8q-27 0 -39 -11t-12 -38v-47h85v-140h-85v-357h-182v357h-119v-357h-182v357h-63v140h63v22q0 213 255 213q69 0 128 -16q43 25 128 25q45 0 80 -8zM375 576q-22 7 -53 7q-67 0 -67 -60v-26h119v46q0 22 1 33z" />
    <glyph glyph-name="lessequal" unicode="&#x2264;" horiz-adv-x="900" 
d="M857 0h-182v357h-119v-357h-182v357h-119v-357h-182v357h-63v140h63v22q0 213 257 213q72 0 146 -21q61 32 169 32q83 0 181 -19l-31 -151q-76 19 -129 19q-57 0 -83.5 -18.5t-26.5 -58.5v-18h301v-497zM380 575q-24 8 -58 8q-67 0 -67 -60v-26h119v12q0 36 6 66z" />
    <glyph glyph-name="greaterequal" unicode="&#x2265;" horiz-adv-x="900" 
d="M857 0h-182v589q-20 4 -46 4q-34 0 -53.5 -16.5t-19.5 -47.5v-32h73v-140h-73v-357h-182v357h-119v-357h-182v357h-63v140h63v22q0 213 257 213q74 0 148 -21q64 32 166 32q81 0 213 -21v-722zM377 576q-23 7 -55 7q-67 0 -67 -60v-26h119v35q0 22 3 44z" />
    <glyph glyph-name="lozenge" unicode="&#x25ca;" horiz-adv-x="636" 
d="M631 337l-255 -347h-114l-257 347l257 348h114zM431 333l-118 153l-106 -145l114 -156z" />
    <glyph glyph-name="apple" unicode="&#xf8ff;" horiz-adv-x="1963" 
d="M212 505l272 -33q-8 -63 0 -124l-272 -33q-13 98 0 190zM370 889q66 80 133 132l169 -214q-45 -35 -86 -87zM1044 912q-59 7 -123 -1l-34 268q82 12 188 0zM1294 809l164 211q77 -61 132 -133l-208 -164q-43 53 -88 86zM1751 504q10 -95 1 -188l-266 33q8 58 0 123z
M1394 410q0 -153 -95 -265v-124l-24 -6l49 -116l-48 -13l48 -113l-52 -13l14 -34l-49 -116h-97q-7 -34 -51.5 -56.5t-107.5 -22.5q-64 0 -108.5 22.5t-50.5 56.5h-97l-90 214l48 13l-49 116l53 14l-27 64v119q-92 114 -92 260q0 171 121 292t292 121t292 -121t121 -292z
M801 204h54l-21 173q-23 -5 -60 -19q-16 -6 -25 24t-5 64t18 38q116 33 219 33q104 0 221 -33q13 -4 17 -38t-5 -63.5t-26 -23.5q-28 11 -62 18l-19 -173h54q94 82 94 206q0 113 -80.5 193.5t-193.5 80.5t-193.5 -80.5t-80.5 -193.5q0 -61 25.5 -115t68.5 -91zM1027 393
q-17 2 -46 2q-30 0 -48 -2l20 -189h56zM1153 94h-347v-54l18 -41l329 84v11zM1151 -46l-12 29l-333 -85l13 -29zM1152 -175l-13 29l-331 -85l29 -71h287l12 29l-3 7l-93 -23l-28 78zM967 448v1h-2v6h-1v-7h3zM973 453h-1v-4q0 -1 -1 -1t-1 1v4h-1v-4q0 -1 2 -1t2 1v4z
M978 448v1q-1 -1 -2 0q1 2 2 3v1q-3 1 -3 -2q1 -2 3 -3zM981 446h1q-1 5 0 10h-1q-1 -5 0 -10zM987 449v-1h1v4q0 3 -4 1v-1q3 2 3 -1q-3 0 -3 -2q1 -1 3 0zM987 450q-1 0 -2 -1q0 1 2 1zM994 450q0 1 -2 2h-1q0 1 3 1v1q-4 0 -4 -2q0 -1 2 -2h1q0 -1 -3 -1v-1q4 0 4 2z
M997 446q1 5 0 10h-1q1 -5 0 -10h1z" />
    <glyph glyph-name="fi" unicode="&#xfb01;" horiz-adv-x="603" 
d="M556 0h-182v357h-119v-357h-182v357h-63v140h63v12q0 119 64.5 176.5t200.5 57.5q86 0 175 -19l-29 -151q-66 19 -123 19q-56 0 -81 -18.5t-25 -58.5v-18h301v-497z" />
    <glyph glyph-name="fl" unicode="&#xfb02;" horiz-adv-x="603" 
d="M556 0h-182v589q-20 4 -46 4q-34 0 -53.5 -16.5t-19.5 -47.5v-32h73v-140h-73v-357h-182v357h-63v140h63v35q0 96 64.5 153.5t205.5 57.5q81 0 213 -21v-722z" />
    </font>
</defs>
</svg>
